_KOOK
武林高手

[2014] [韩国] [爱情] [WEB-1080P] [BT下载]楼上的女孩.Upstairs Girl.2014.KR.WEB-DL.1920x1080p.x264.AAC-KOOK.[韩语中字] 2.19GB

-->

楼上的女孩.Upstairs Girl.2014.KR.WEB-DL.1920x1080p.x264.AAC-KOOK.[韩语中字]

无广告,无水印

不定时做种,保证出种,请耐心等待.


※※※※※※※ 影片信息 ※※※※※※※


◎片   名 楼上的女孩

◎译   名 Upstairs Girl

◎年   代 2014

◎国   家 韩国

◎类   别 爱情 / 情色

◎语   言 韩语

◎上映日 期 2014-10-29(韩国)

◎字   幕 简体字幕/繁体字幕

◎豆瓣 评分  3.4/10 from  users

◎视频尺 寸  1920x1080p

◎片   长 1.35.32

◎导   演 Lee Chan-wook

◎编   剧  Lee Chan-wook

◎主   演 徐宥利 / Park Won-bin / Kim Yoon-jeon



#411

 

◎简  介


  楼上的女孩电影剧情讲述一个傻帽一直暗恋着楼上的性感女子展开的故事,最后竟真的和其xxoo了...







※※※※※※※ 参数信息 ※※※※※※※




General

Unique ID                      : 193144148711077099325734358995109896077 (0x914E35BFD885D35F831E95F4DFF75F8D)


Format                         : Matroska

Format version                 : Version 4 / Version 2

File size                      : 2.20 GiB

Duration                       : 1h 35mn

Overall bit rate               : 3 293 Kbps

Movie name                     : KOOK

Encoded date                   : UTC 2019-03-17 04:13:31

Writing application            : mkvmerge v7.7.0 ('Six Voices') 32bit built on Feb 28 2015 23:23:00

Writing library                : libebml v1.3.1 + libmatroska v1.4.2

Attachements                   : 正式海报.jpg / fzlbfw.ttf / fzlbjw.ttf


Video

ID                             : 1

Format                         : AVC

Format/Info                    : Advanced Video Codec

Format profile                 : [email protected]

Format settings, CABAC         : Yes

Format settings, ReFrames      : 4 frames

Codec ID                       : V_MPEG4/ISO/AVC

Duration                       : 1h 35mn

Bit rate                       : 3 100 Kbps

Width                          : 1 920 pixels

Height                         : 1 080 pixels

Display aspect ratio           : 16:9

Frame rate mode                : Constant

Frame rate                     : 29.970 (29970/1000) fps

Color space                    : YUV

Chroma subsampling             : 4:2:0

Bit depth                      : 8 bits

Scan type                      : Progressive

Bits/(Pixel*Frame)             : 0.050

Stream size                    : 2.07 GiB (94%)

Writing library                : x264 core 148 r2721+46 0c4b09a xiaowan [[email protected] X86_64]

Encoding settings              : cabac=1 / ref=4 / deblock=1:1:1 / analyse=0x3:0x133 / me=umh / subme=10 / psy=1 / fade_compensate=0.00 / psy_rd=0.30:0.00 / mixed_ref=1 / me_range=24 / chroma_me=1 / trellis=2 / 8x8dct=1 / cqm=0 / deadzone=21,11 / fast_pskip=1 / chroma_qp_offset=-2 / threads=12 / lookahead_threads=1 / sliced_threads=0 / nr=0 / decimate=1 / interlaced=0 / bluray_compat=0 / constrained_intra=0 / fgo=0 / bframes=3 / b_pyramid=2 / b_adapt=2 / b_bias=0 / direct=3 / weightb=1 / open_gop=0 / weightp=2 / keyint=300 / keyint_min=1 / scenecut=60 / intra_refresh=0 / rc_lookahead=60 / rc=2pass / mbtree=1 / bitrate=3100 / ratetol=1.0 / qcomp=0.50 / qpmin=0:0:0 / qpmax=69:69:69 / qpstep=4 / cplxblur=20.0 / qblur=0.5 / ip_ratio=1.40 / aq=2:0.80 / aq-sensitivity=10.00 / aq-factor=1.00:1.00:1.00 / aq2=0 / aq3=0

Default                        : Yes

Forced                         : No

Color range                    : Limited

Matrix coefficients            : BT.709


Audio

ID                             : 2

Format                         : AAC

Format/Info                    : Advanced Audio Codec

Format profile                 : LC

Codec ID                       : A_AAC

Duration                       : 1h 35mn

Bit rate                       : 177 Kbps

Channel(s)                     : 2 channels

Channel positions              : Front: L R

Sampling rate                  : 44.1 KHz

Frame rate                     : 43.066 fps (1024 spf)

Compression mode               : Lossy

Stream size                    : 121 MiB (5%)

Default                        : Yes

Forced                         : No


Text #1

ID                             : 3

Format                         : ASS

Codec ID                       : S_TEXT/ASS

Codec ID/Info                  : Advanced Sub Station Alpha

Duration                       : 1h 34mn

Bit rate                       : 86 bps

Count of elements              : 1050

Compression mode               : Lossless

Stream size                    : 60.0 KiB (0%)

Title                          : 简体字幕

Language                       : Chinese

Default                        : Yes

Forced                         : No


Text #2

ID                             : 4

Format                         : ASS

Codec ID                       : S_TEXT/ASS

Codec ID/Info                  : Advanced Sub Station Alpha

Duration                       : 1h 34mn

Bit rate                       : 86 bps

Count of elements              : 1050

Compression mode               : Lossless

Stream size                    : 60.0 KiB (0%)

Default                        : No

Forced                         : No


1 个附件 售价 大小 下载 时间

楼上的女孩.Upstairs Girl.2014.KR.WEB-DL.1920x1080p.x264.AAC-KOOK.[韩语中字].torrent 0 金币 90.28K 8120 次 1月前

#1楼
发帖时间:2019-03-18 20:34:38   |   回复数:7
911degrees
隐世仙人♂
非常感谢,谢谢分享
1月前 #2楼
liyouchai
超凡入圣№
谢谢楼主分享资源
1月前 #3楼
yangbo83222179
一代宗师
谢谢楼主分享,支持一下
1月前 #4楼
tanchoohoon
武林盟主
感谢楼主分享
1月前 #5楼
blue23
隐世仙人♂
感谢楼主分享
1月前 #6楼
LAMKIMBO
武林高手
謝謝
1月前 #7楼
kola13
一派掌门
感谢分享
29天前 #8楼
游客组