_KOOK
武林高手

[2016] [欧美] [爱情] [WEB-1080P] [BT下载]真爱的伪术.A Real Vermeer.2016.NL.AMZN.WEB-DL.1920x1040p.x264.EAC3-KOOK.[荷语中字]

-->

真爱的伪术.A Real Vermeer.2016.NL.AMZN.WEB-DL.1920x1040p.x264.EAC3-KOOK.[荷语中字]

无广告,无水印,欢迎转载

?#27426;?#26102;做种,保证出种,请耐心等待.

英文字幕是硬字幕


※※※※※※※ 影片信息 ※※※※※※※


◎片   名 真爱的伪术

◎译   名 A Real Vermeer / Een echte Vermeer / 真假维梅尔(台)

◎年   代 2016

◎国   家 荷兰

◎类   别 剧情

◎语   言 荷兰语

◎上映日 期 2016-11-03(荷兰)

◎字   幕 简体字幕/繁体字幕

◎IMDB 评分  6.1/10 from 283 users

◎豆瓣 评分  6.4/10 from 90 users

◎视频尺 寸  1920x1040p

◎片   长 1.54.03

◎导   演 鲁道夫·范·登·伯格

◎编   剧  杜明历·狄鲁第 / Jan Eilander / 鲁道夫·范·登·伯格

◎主   演 扬容·斯皮森伯格 / Lize Feryn / Roeland Fernhout / Dewi Reijs / 雷蒙德·提哈瑞


#410


 

◎简  介



  此为1920年代艺术界真人真事改编。编自二战后举世震惊的「维梅尔伪画?#24405;梗?#30001;荷兰电影奖最佳导演鲁道夫范登贝治(RudolfvandenBerg)首度搬上大银幕。剧情描述荷?#23478;?#26415;家米格伦(HanvanMeegeren)教人叹为观止的真?#31561;?#29983;,他因爱上知名艺评家布雷迪斯的美丽妻子尤兰卡,从此画作?#20197;?#24694;评。为求报复,于是开始仿造维梅尔,不料竟成功瞒过情敌、骗过艺术界,最夸张的是,还让纳粹?#31449;?#20803;帅戈林以高价收藏,震惊全世界。 

  果然「维梅尔」成功骗过专家,甚至高价卖给纳粹… 

  米格伦一直被?#28216;?#32487;承荷兰大师的天才画家。一次偶然,他遇见女星尤兰卡,深深为她著迷,但她却是赫赫知名艺评家布雷迪斯的妻?#21360;?#31859;格伦不顾外界看法邀她作画,浓情爱意跃然于画布上,从此树立了一个足以摧毁自己职场的敌人。妒火中烧的布雷迪斯,为报复米格伦,公开诋毁他的画作。米格伦事业遭受打击,人生顿时跌落?#26031;?#24213;。 

  名声重创的米格伦于是搬到南欧,专心致志报复布雷迪斯。由于维梅尔画作,向来都由布雷迪斯负责鑑赏,米格伦于是倾全力绘製了完美的伪画,诱使他做出错误的判断。果然这些「维梅尔画作」成功骗过了布雷迪斯,更骗过艺术界专家、卖进了博物馆,其中一幅甚至还高价卖给纳粹首脑戈林,从此翻转了米格伦...






※※※※※※※ 参数信息 ※※※※※※※




General

Unique ID                      : 200735036196577567970704130530237000581 (0x97042965D153371EB851E6556890AB85)


Format                         : Matroska

Format version                 : Version 4 / Version 2

File size                      : 4.73 GiB

Duration                       : 1 h 54 min

Overall bit rate mode          : Variable

Overall bit rate               : 5 933 kb/s

Movie name                     : KOOK

Encoded date                   : UTC 2019-03-14 13:50:51

Writing application            : mkvmerge v9.4.2 ('So High') 64bit

Writing library                : libebml v1.3.4 + libmatroska v1.4.5

Attachments                    : 正式海报.jpg / fzlbjw.ttf / fzlbfw.ttf


Video

ID                             : 1

Format                         : AVC

Format/Info                    : Advanced Video Codec

Format profile                 : [email protected]

Format settings, CABAC         : Yes

Format settings, ReFrames      : 4 frames

Codec ID                       : V_MPEG4/ISO/AVC

Duration                       : 1 h 54 min

Bit rate mode                  : Variable

Bit rate                       : 5 696 kb/s

Maximum bit rate               : 15.0 Mb/s

Width                          : 1 920 pixels

Height                         : 1 040 pixels

Display aspect ratio           : 1.85:1

Frame rate mode                : Constant

Frame rate                     : 24.000 FPS

Color space                    : YUV

Chroma subsampling             : 4:2:0

Bit depth                      : 8 bits

Scan type                      : Progressive

Bits/(Pixel*Frame)             : 0.119

Stream size                    : 4.54 GiB (96%)

Default                        : Yes

Forced                         : No

Color range                    : Limited

Color primaries                : BT.709

Transfer characteristics       : BT.709

Matrix coefficients            : BT.709


Audio

ID                             : 2

Format                         : E-AC-3

Format/Info                    : Audio Coding 3

Format settings, Endianness    : Big

Codec ID                       : A_EAC3

Duration                       : 1 h 54 min

Bit rate mode                  : Constant

Bit rate                       : 224 kb/s

Channel(s)                     : 2 channels

Channel positions              : Front: L R

Sampling rate                  : 48.0 kHz

Frame rate                     : 187.500 FPS (256 spf)

Compression mode               : Lossy

Stream size                    : 183 MiB (4%)

Language                       : Dutch

Default                        : Yes

Forced                         : No


Text #1

ID                             : 3

Format                         : ASS

Codec ID                       : S_TEXT/ASS

Codec ID/Info                  : Advanced Sub Station Alpha

Duration                       : 1 h 47 min

Bit rate                       : 91 b/s

Count of elements              : 1178

Compression mode               : Lossless

Stream size                    : 72.6 KiB (0%)

Title                          : 简体字幕

Language                       : Chinese

Default                        : Yes

Forced                         : No


Text #2

ID                             : 4

Format                         : ASS

Codec ID                       : S_TEXT/ASS

Codec ID/Info                  : Advanced Sub Station Alpha

Duration                       : 1 h 47 min

Bit rate                       : 91 b/s

Count of elements              : 1178

Compression mode               : Lossless

Stream size                    : 72.6 KiB (0%)

Title                          : 繁体字幕

Language                       : Chinese

Default                        : No

Forced                         : No


1 个附件 售价 大小 下载 时间

真爱的伪术.A Real Vermeer.2016.NL.AMZN.WEB-DL.1920x1040p.x264.EAC3-KOOK.[荷语中字].torrent 0 金币 98.78K 2492 次 1月前

#1楼
发帖时间:2019-03-18 20:33:15   |   回复数:6
911degrees
隐世仙人♂
非常感谢,谢谢分享
1月前 #2楼
liyouchai
超凡入圣№
谢谢楼主分享资源
1月前 #3楼
yangbo83222179
一代宗师
谢谢楼主分享,支持一下
1月前 #4楼
godrickwok
无名小卒
不错,感谢分享
1月前 #5楼
tanchoohoon
武林盟主
感谢楼主分享
1月前 #6楼
blue23
隐世仙人♂
感谢楼主分享
1月前 #7楼
游客组