_KOOK
武林高手

[2014] [日本] [爱情] [BD-1080P] [BT下载]花宵道中.A Courtesan With Flowered Skin.2014.JP.BluRay.1920x1036p.x264.AC3-KOO

-->

花宵道中.A Courtesan With Flowered Skin.2014.JP.BluRay.1920x1036p.x264.AC3-KOOK.[日语中字] 9.06GB


无广告,无水印,欢迎转载

?#27426;?#26102;做种,保证出种,请耐心等待.



※※※※※※※ 影片信息 ※※※※※※※


◎片   名 花宵道中

◎译   名 Hanayoi Dochu / A Courtesan With Flowered Skin

◎年   代 2014

◎国   家 美国

◎类   别 日本

◎语   言 日语

◎上映日 期 2014-11-08(日本)

◎字   幕 繁英双字/简体字幕

◎IMDB 评分  6.1/10 from 102 users

◎豆瓣 评分  6.0/10 from 6773 users

◎视频尺 寸  1920x1036p

◎片   长 1.42.26

◎导   演 丰岛圭介

◎编   剧  宮木あや子

◎主   演 安达祐实 / 渊上泰史 / 小篠恵奈 / 三津谷叶子 / 多岐川華子 / 立花彩野 / 高冈早纪 / 友近 / 津田宽治


#408


 

◎简  介


  故事发生在江户时代末年,雾里(高冈早纪 饰)偶然之中遇见了孤女朝雾(安达佑实 饰),将她带回了妓?#28023;?#35757;练其成为了游女。朝雾曾遭到母亲的虐待,身上遍布了樱花状的伤疤,却因祸得福,因为这异于常人之处而备受客人喜爱。 

  某日,在盛大的祭奠中,朝雾邂逅了名为半次郎(渊上泰史 饰)的青年,善?#31085;?#24072;的半次郎吸引了朝雾的注意,使得她?#35895;?#20102;情网之中。?#27426;?#36523;为妓院头牌,恋爱是被明令禁止的,朝雾因此而遭到了老板娘的斥责。之后,在吉田屋(津田宽治 饰)举办的宴会上,朝雾和半次郎重逢了,吉田屋察觉到了两人流露出的情谊,占有欲极强的他决定拆散他们。



General

Unique ID                      : 170864962300616880001198480069315124299 (0x808B650D4BDA4068880B8342FFE9DC4B)


Format                         : Matroska

Format version                 : Version 4 / Version 2

File size                      : 9.07 GiB

Duration                       : 1 h 42 min

Overall bit rate               : 12.7 Mb/s

Movie name                     : KOOK

Encoded date                   : UTC 2019-03-11 12:33:15

Writing application            : mkvmerge v9.4.2 ('So High') 64bit

Writing library                : libebml v1.3.4 + libmatroska v1.4.5

Attachments                    : 正式海报 日本.jpg / fzlbjw.ttf / fzlbfw.ttf / 方正粗雅宋_GBK.TTF


Video

ID                             : 1

Format                         : AVC

Format/Info                    : Advanced Video Codec

Format profile                 : [email protected]

Format settings, CABAC         : Yes

Format settings, ReFrames      : 4 frames

Codec ID                       : V_MPEG4/ISO/AVC

Duration                       : 1 h 42 min

Bit rate                       : 12.0 Mb/s

Width                          : 1 920 pixels

Height                         : 1 036 pixels

Display aspect ratio           : 1.85:1

Frame rate mode                : Variable

Frame rate                     : 23.976 (24000/1001) FPS

Color space                    : YUV

Chroma subsampling             : 4:2:0

Bit depth                      : 8 bits

Scan type                      : Progressive

Bits/(Pixel*Frame)             : 0.252

Stream size                    : 8.59 GiB (95%)

Writing library                : x264 core 148 r2721+46 0c4b09a xiaowan [[email protected] X86_64]

Encoding settings              : cabac=1 / ref=4 / deblock=1:1:1 / analyse=0x3:0x133 / me=umh / subme=10 / psy=1 / fade_compensate=0.00 / psy_rd=0.30:0.00 / mixed_ref=1 / me_range=24 / chroma_me=1 / trellis=2 / 8x8dct=1 / cqm=0 / deadzone=21,11 / fast_pskip=1 / chroma_qp_offset=-2 / threads=12 / lookahead_threads=1 / sliced_threads=0 / nr=0 / decimate=1 / interlaced=0 / bluray_compat=0 / constrained_intra=0 / fgo=0 / bframes=3 / b_pyramid=2 / b_adapt=2 / b_bias=0 / direct=3 / weightb=1 / open_gop=0 / weightp=2 / keyint=240 / keyint_min=1 / scenecut=60 / intra_refresh=0 / rc_lookahead=60 / rc=2pass / mbtree=1 / bitrate=12000 / ratetol=1.0 / qcomp=0.50 / qpmin=0:0:0 / qpmax=69:69:69 / qpstep=4 / cplxblur=20.0 / qblur=0.5 / ip_ratio=1.40 / aq=2:0.80 / aq-sensitivity=10.00 / aq-factor=1.00:1.00:1.00 / aq2=0 / aq3=0

Default                        : Yes

Forced                         : No

Color range                    : Limited

Matrix coefficients            : BT.709


Audio

ID                             : 2

Format                         : AC-3

Format/Info                    : Audio Coding 3

Mode extension                 : CM (complete main)

Format settings, Endianness    : Big

Codec ID                       : A_AC3

Duration                       : 1 h 42 min

Bit rate mode                  : Constant

Bit rate                       : 640 kb/s

Channel(s)                     : 6 channels

Channel positions              : Front: L C R, Side: L R, LFE

Sampling rate                  : 48.0 kHz

Frame rate                     : 31.250 FPS (1536 spf)

Compression mode               : Lossy

Stream size                    : 469 MiB (5%)

Language                       : Japanese

Default                        : Yes

Forced                         : No


Text #1

ID                             : 3

Format                         : ASS

Codec ID                       : S_TEXT/ASS

Codec ID/Info                  : Advanced Sub Station Alpha

Duration                       : 1 h 38 min

Bit rate                       : 48 b/s

Count of elements              : 723

Compression mode               : Lossless

Stream size                    : 34.8 KiB (0%)

Title                          : 简体字幕

Language                       : Chinese

Default                        : Yes

Forced                         : No


Text #2

ID                             : 4

Format                         : ASS

Codec ID                       : S_TEXT/ASS

Codec ID/Info                  : Advanced Sub Station Alpha

Duration                       : 1 h 38 min

Bit rate                       : 48 b/s

Count of elements              : 723

Compression mode               : Lossless

Stream size                    : 34.8 KiB (0%)

Title                          : 繁体字幕

Language                       : Chinese

Default                        : No

Forced                         : No


Menu

00:00:00.000                   : en:00:00:00.000

00:03:46.601                   : en:00:03:46.601

00:07:15.060                   : en:00:07:15.060

00:10:26.125                   : en:00:10:26.125

00:15:37.645                   : en:00:15:37.645

00:16:49.175                   : en:00:16:49.175

00:24:35.724                   : en:00:24:35.724

00:30:43.592                   : en:00:30:43.592

00:34:01.164                   : en:00:34:01.164

00:37:17.026                   : en:00:37:17.026

00:39:27.907                   : en:00:39:27.907

00:48:33.744                   : en:00:48:33.744

00:52:13.047                   : en:00:52:13.047

00:57:20.937                   : en:00:57:20.937

01:03:21.673                   : en:01:03:21.673

01:05:15.787                   : en:01:05:15.787

01:11:58.231                   : en:01:11:58.231

01:15:07.837                   : en:01:15:07.837

01:18:23.908                   : en:01:18:23.908

01:22:39.288                   : en:01:22:39.288

01:28:10.202                   : en:01:28:10.202

01:33:44.244                   : en:01:33:44.244

01:36:42.422                   : en:01:36:42.422






※※※※※※※ 参数信息 ※※※※※※※




1 个附件 售价 大小 下载 时间

花宵道中.A Courtesan With Flowered Skin.2014.JP.BluRay.1920x1036p.x264.AC3-KOOK.[日语中字].torrent 0 金币 96.11K 4158 次 1月前

#1楼
发帖时间:2019-03-18 20:29:34   |   回复数:6
911degrees
隐?#32769;?#20154;♂
非常感谢,谢谢分享
1月前 #2楼
liyouchai
超凡入圣№
谢谢楼主分享资源
1月前 #3楼
yangbo83222179
一代宗师
谢谢楼主分享,支持一下
1月前 #4楼
tanchoohoon
武林盟主
感谢楼主分享
1月前 #5楼
blue23
隐?#32769;?#20154;♂
感谢楼主分享
1月前 #6楼
nttyhjp
小有名气
现在像kook坚持分享好资源的版主?#27426;?#20102;,谢谢
18天前 #7楼
游客组