HELLO小虾
版主

[2018] [韩国] [动作] [BD-1080P] [BT下载]猖獗/尸杀帝国 Rampant.2018.1080p.BluRay.x264.DTS-HD.MA.5.1-MT 14.9GB

-->

◎译  名 猖獗 / Rampant / 尸杀帝国(港) / 尸落之城(台)

◎片  名 ??

◎年  代 2018

◎产  地 韩国

◎类  别 动作 / 恐怖

◎语  言 韩语

◎上映日期 2018-10-25(韩国)

◎IMDb评分 6.3/10 from 654 users

◎IMDb链接 http://www.imdb.com/title/tt6927152

◎豆瓣评分 5.7/10 from 4966 users

◎豆瓣链接 https://movie.douban.com/subject/26975011/

◎BT之家整理 http://8btbtt.com/ 

◎片  长 121分钟

◎导  演 金成勋 Kim Sung-hoon

◎编  剧 黄祖润 Jo-yun Hwang / 元新渊 Shin-yeon Won / 黄肇允 Hwang Jo Yoon

◎主  演 玄彬 Hyun Bin

      赵宇镇 Cho WooJin

      张东健 Dong-gun Jang

      金义城 Eui-sung Kim

      李善彬 Sun-bin Lee

      郑满植 Man-shik Jeong

      徐智慧 Ji-hye Seo

      赵达焕 Dal-hwan Jo

      金太祐 Tae-woo Kim

      许成泰 Seong-tae Heo

      朴镇宇 Park Jin-woo

      韩智恩 Han Ji Eun

      许俊硕 Jun-seok Heo

      白秀章 Soo-Jang Baek

      鄭惟安  Jung Yoo-ahn




◎简  介  


  《猖獗》讲述了古代王子带兵与名为“夜鬼”的僵尸战斗,拯救国家的故事,玄彬饰演了在国外当十多年人质后回国的王子,而张东健则饰演了手握兵权,试图进行改革的朝廷重臣。


Video
ID : 1
Format : AVC
Format/Info : Advanced Video Codec
Format profile : [email protected]
Format settings : CABAC / 5 Ref Frames
Format settings, CABAC : Yes
Format settings, ReFrames : 5 frames
Codec ID : V_MPEG4/ISO/AVC
Duration : 2 h 1 min
Bit rate : 15.2 Mb/s
Width : 1 920 pixels
Height : 806 pixels
Display aspect ratio : 2.40:1
Frame rate mode : Constant
Frame rate : 24.000 FPS
Color space : YUV
Chroma subsampling : 4:2:0
Bit depth : 8 bits
Scan type : Progressive
Bits/(Pixel*Frame) : 0.408
Stream size : 12.9 GiB (86%)
Writing library : x264 core 157 r2938 2b00a84 [email protected] Mod
Encoding settings : cabac=1 / ref=5 / deblock=1:-3:-3 / analyse=0x3:0x133 / me=umh / subme=10 / psy=1 / psy_rd=1.05:0.00 / mixed_ref=1 / me_range=32 / chroma_me=1 / trellis=2 / 8x8dct=1 / cqm=0 / deadzone=21,11 / fast_pskip=0 / chroma_qp_offset=-2 / threads=12 / lookahead_threads=2 / sliced_threads=0 / nr=0 / decimate=0 / interlaced=0 / bluray_compat=0 / constrained_intra=0 / bframes=8 / b_pyramid=2 / b_adapt=2 / b_bias=0 / direct=3 / weightb=1 / open_gop=0 / weightp=2 / keyint=250 / keyint_min=24 / scenecut=40 / intra_refresh=0 / rc_lookahead=250 / rc=crf / mbtree=0 / crf=17.5 / qcomp=0.60 / qpmin=0 / qpmax=69 / qpstep=4 / vbv_maxrate=62500 / vbv_bufsize=78125 / crf_max=0.0 / nal_hrd=none / filler=0 / ip_ratio=1.30 / pb_ratio=1.20 / aq=3:0.80
Language : English
Default : Yes
Forced : No
Color range : Limited
Color primaries : BT.709
Matrix coefficients : BT.709

Audio
ID : 2
Format : DTS XLL
Format/Info : Digital Theater Systems
Commercial name : DTS-HD Master Audio
Codec ID : A_DTS
Duration : 2 h 1 min
Bit rate mode : Variable
Bit rate : 2 407 kb/s
Channel(s) : 6 channels
Channel layout : C L R Ls Rs LFE
Sampling rate : 48.0 kHz
Frame rate : 93.750 FPS (512 SPF)
Bit depth : 16 bits
Compression mode : Lossless
Stream size : 2.04 GiB (14%)
Language : Korean
Default : Yes
Forced : No

Text #1
ID : 3
Format : UTF-8
Codec ID : S_TEXT/UTF8
Codec ID/Info : UTF-8 Plain Text
Duration : 1 h 55 min
Bit rate : 32 b/s
Count of elements : 1042
Stream size : 27.8 KiB (0%)
Title : English-SRT
Language : English
Default : Yes
Forced : Yes

Text #2
ID : 4
Format : PGS
Muxing mode : zlib
Codec ID : S_HDMV/PGS
Codec ID/Info : Picture based subtitle format used on BDs/HD-DVDs
Duration : 1 h 55 min
Bit rate : 21.7 kb/s
Count of elements : 2068
Stream size : 17.8 MiB (0%)
Title : English-PGS
Language : English
Default : No
Forced : No

Menu
00:00:00.000 : en:Chapter 01
00:08:16.167 : en:Chapter 02
00:16:08.167 : en:Chapter 03
00:26:33.917 : en:Chapter 04
00:35:54.833 : en:Chapter 05
00:46:54.000 : en:Chapter 06
00:53:57.167 : en:Chapter 07
01:02:12.083 : en:Chapter 08
01:12:42.542 : en:Chapter 09
01:20:40.083 : en:Chapter 10
01:27:05.208 : en:Chapter 11
01:41:45.375 : en:Chapter 12
01:50:28.375 : en:Chapter 13
01:57:48.792 : en:Chapter 14



1 个附件 售价 大小 下载 时间

Rampant.2018.KOREAN.1080p.BluRay.x264.DTS-HD.MA.5.1-MT[92btbtt.com].torrent 0 金币 75.22K 6104 次 25天前

#1楼
发帖时间:2019-02-21 18:02:20   |   回复数:7
PCHUN
武林高手
Thanks for sharing
25天前 #2楼
911degrees
隐世仙人♂
非常?#34892;唬?#35874;谢分享
25天前 #3楼
liyouchai
超凡入圣№
谢谢楼主分享资源
25天前 #4楼
kola13
一派掌门
?#34892;?#20998;享
24天前 #5楼
blue23
隐世仙人♂
?#34892;?#27004;主分享
23天前 #6楼
anning1986
小有名气
有字幕吗?
19天前 #7楼
ff8590
武林高手
?#34892;?#27004;主分享
19天前 #8楼
游客组